#TITLE:Potential Breakup Song;
#SUBTITLE:;
#ARTIST:Aly & AJ;
#TITLETRANSLIT:;
#SUBTITLETRANSLIT:;
#ARTISTTRANSLIT:Aly & AJ;
#CREDIT:;
#BANNER:Potential Breakup Song-bn.png;
#BACKGROUND:Potential Breakup Song-bg.png;
#LYRICSPATH:;
#CDTITLE:pm4cd.png;
#MUSIC:Potential Breakup Song.mp3;
#OFFSET:0.020;
#SAMPLESTART:49.220;
#SAMPLELENGTH:19.960;
#SELECTABLE:YES;
#BPMS:0.000=158.000;
#STOPS:;
#BGCHANGES:;
// cache tags:
#FIRSTBEAT:1.500;
#LASTBEAT:569.500;
#SONGFILENAME:Songs/Music V.I.P ^_^/Potential Break Up Song/Potential Breakup Song.sm;
#HASMUSIC:1;
#HASBANNER:1;
#MUSICLENGTH:219.936;
// end cache tags

//---------------dance-single - ----------------
#NOTES:
     dance-single:
     :
     Hard:
     20:
     1.000,1.000,1.000,0.764,0.914,1495.000,510.000,168.000,0.000,368.000:
0000
0000
0000
0100
0010
0001
0010
0000
,
1000
1000
0000
0010
0100
1000
0100
0000
,
0001
0001
0000
1000
0100
0010
0100
0000
,
0010
0010
0000
0001
0010
0100
0010
0000
,
0100
0100
0000
0010
0001
0010
0100
0000
,
1000
1000
0000
0100
1000
0100
0010
0000
,
0001
0001
0000
1100
0010
0100
1000
0000
,
0010
0100
1000
1100
0000
1100
0000
0110
,
0110
1101
0000
0101
0010
1001
0100
0011
,
0110
1100
0001
1010
0001
0110
0100
1001
,
0110
1100
0010
1001
0100
0011
1000
0101
,
0100
0011
0100
1010
0100
0011
1100
0110
,
0100
1001
0001
0101
0010
1001
0100
0011
,
1010
0101
0010
1001
0010
1100
0100
0101
,
1010
0110
0100
1001
0010
0101
0001
1010
,
0110
0011
1000
0101
0010
1001
0010
1100
,
0000
1000
0101
0000
0001
0010
1101
0000
0010
0000
1100
0000
0001
0000
0101
0000
,
1100
1010
0001
0110
0001
1001
0010
1100
,
0110
0011
0010
1010
0001
0101
0010
1100
,
0101
0011
1000
1001
0010
0110
1000
0101
,
1010
0101
0010
0101
1000
0011
1000
0110
,
1001
0011
0010
1010
0001
0110
1000
0011
,
1010
1100
0001
0110
1000
0011
0010
0101
,
0110
1001
0010
1100
0001
0110
1000
0101
,
1010
0011
0100
1111
1010
0101
1010
0011
,
1100
0011
0000
1001
0110
1001
0101
1010
,
0101
1100
0100
0011
0000
1001
0100
1010
,
0110
0011
0100
1020
0100
0101
0100
1001
,
1100
0101
0001
1031
1100
0011
0101
0110
,
1100
0011
0000
1001
0101
0110
1010
1100
,
0101
0011
0000
0101
0000
0001
0010
1100
,
1010
1001
0100
0012
0100
0110
0100
2013
,
0101
0000
0101
0010
0101
0010
3101
1000
0001
0010
0001
0100
0010
0001
0100
1000
,
0010
0100
1000
0100
0010
0001
0100
0010
1000
0010
1000
0010
0001
0100
0010
0100
,
0001
0010
0001
1000
0100
0010
0001
0010
0100
1000
0100
0001
0010
0001
0100
1000
,
0010
0100
0010
1000
0002
0010
0100
1000
0010
0100
0010
0100
2003
0100
0001
0100
,
0010
0100
0010
0001
0010
0100
3101
0010
0001
0100
0010
1000
0100
0010
0100
0010
,
0001
1000
0100
0001
1000
0100
0001
0100
0010
0001
0100
0010
1000
0100
0001
1000
,
0010
0001
0100
0001
0010
0001
1000
0100
0010
0100
0001
0010
0100
1000
0100
0010
,
0001
0100
0010
0001
0200
0001
1000
0010
0001
1000
0010
1000
0001
0010
0001
0010
,
1001
0010
1001
0010
1001
0010
1311
0100
1000
0010
0001
0100
0010
1000
0001
0100
,
0010
0001
0100
1000
0100
0001
0010
1000
0100
1000
0010
0001
0100
1000
0001
0010
,
1000
0001
0100
1000
0001
0010
0001
1000
0001
0010
0001
0100
1000
0010
0100
0010
,
0001
1000
0100
0001
0200
1000
0001
0010
1000
0010
0001
1000
0302
0010
1000
0010
,
0100
1000
0010
0100
0010
0100
1103
0010
0001
1000
0001
0100
0010
0001
1000
0100
,
0010
0001
1000
0100
1000
0010
0100
0001
0010
0001
0100
0010
0100
0001
0010
1000
,
0010
0100
1000
0001
0010
1000
0100
1000
0001
0010
0001
0100
0001
1000
0010
1000
,
0100
0010
0001
0100
2000
0001
0010
0100
0001
0010
0100
0001
0010
0001
0100
0001
,
0110
0001
0110
0001
0110
0001
3121
0000
0100
0000
0102
0000
1000
0000
2130
0000
,
0110
0213
0001
3012
1000
1320
0100
1203
,
1001
1032
0010
1320
0100
2103
0001
0132
,
0110
3210
1000
1023
0001
2301
0001
0132
,
0110
3210
1000
1023
0001
2301
0100
0231
,
0011
3021
1000
1302
0100
2130
0010
0123
,
0101
3201
0001
1032
0010
2310
0100
0123
,
0101
0000
3201
0000
0000
0000
2031
0010
0001
0000
0312
0000
0010
0100
3010
0000
,
1010
1010
1010
0113
0010
1001
0100
0011
,
0110
1100
0001
1010
0001
0110
0100
1001
,
0110
1100
0010
1001
0100
0011
1000
0101
,
0100
0011
0100
1010
0100
0011
1100
0110
,
0100
1001
0001
0101
0010
1001
0100
0011
,
1010
0101
0010
1001
0010
1100
0100
0101
,
1010
0110
0100
1001
0010
0101
0001
1010
,
0110
0011
1000
0101
0010
1001
0010
1100
,
0010
0101
0100
1101
0010
1100
0001
0101
,
1100
1010
0001
0110
0001
1001
0010
1100
,
0110
0011
0010
1010
0001
0101
0010
1100
,
0101
0011
1000
1002
0010
0110
1000
1100
,
1010
0110
0010
1103
1000
0011
1000
0110
,
1001
0011
0010
1010
0001
0110
1000
0011
,
1010
1100
0001
0110
1000
0011
0010
0101
,
0110
1001
0010
1100
1001
1001
1010
1010
,
0101
0000
0101
0010
0101
1000
0101
1000
0001
0010
0001
0100
0010
0001
0100
1000
,
0010
0100
1000
0100
0010
0001
1100
0010
1000
0010
1000
0010
0001
0100
0010
0100
,
0001
0010
0001
1000
0100
0010
1001
0010
0100
1000
0100
0001
0010
0001
0100
1000
,
0010
0100
0010
1000
0002
0010
1100
1000
0010
0100
0010
0100
2003
0100
0001
0100
,
0010
0100
0010
0001
0010
0100
3101
0010
0001
0100
0010
1000
0100
0010
1100
0010
,
0001
1000
0100
0001
1000
0100
1001
0100
0010
0001
0100
0010
1000
0100
0011
1000
,
0010
0001
0100
0001
0010
0001
1010
0100
0010
0100
0001
0010
0100
1000
0110
0010
,
0001
0100
0010
0001
0200
0001
1010
0010
0001
1000
0010
1000
0001
0010
1001
0010
,
1001
0010
1001
0010
1001
0010
1311
0100
1000
0010
0001
0100
0010
1000
0011
0100
,
0010
0001
0100
1000
0100
0001
0110
1000
0100
1000
0010
0001
0100
1000
1001
0010
,
1000
0001
0100
1000
0001
0010
0101
1000
0001
0010
0001
0100
1000
0010
1100
0010
,
0001
1000
0100
0001
0200
1000
1001
0010
1000
0010
0001
1000
0302
0010
1100
0010
,
0100
1000
0010
0100
0010
0100
1103
0010
0001
1000
0001
0100
0010
0001
1001
0100
,
0010
0001
1000
0100
1000
0010
1100
0001
0010
0001
0100
0010
0100
0001
0110
1000
,
0010
0100
1000
0001
0010
1000
0101
1000
0001
0010
0001
0100
0001
1000
0011
1000
,
0100
0010
0001
0100
2000
0001
0110
0100
0001
0010
0100
0001
0010
0001
0110
0001
,
0110
0001
0110
0001
0110
0001
3121
0000
0100
0000
0102
0000
1000
0000
2130
0000
,
0110
0213
0001
3012
1000
1320
0100
1203
,
1001
1032
0010
1320
0100
2103
0001
0132
,
0110
3210
1000
1023
0001
2301
0001
0132
,
0110
3210
1000
1023
0001
2301
0100
0231
,
0011
3021
1000
1302
0100
2130
0010
0123
,
0101
3201
0001
1032
0010
2310
0100
0123
,
0101
3201
1000
2031
0001
0312
0010
3210
,
1010
2013
0001
0312
0100
3120
1000
1203
,
1001
1032
0010
2310
0100
0123
0101
3102
,
1100
1230
1010
1023
0001
2301
0100
0132
,
0110
3120
1000
1203
1000
1032
0010
1320
,
1100
2103
0001
0231
0010
3012
1000
1320
,
1100
0000
2103
0000
0100
0100
0132
0000
0010
0010
3120
0000
1000
1000
2103
0000
,
0001
0001
0131
0000
0010
0000
3101
1000
0001
0010
0001
0100
0010
0001
0110
1000
,
0010
0100
1000
0100
0010
0001
1100
0010
1000
0010
1000
0010
0001
0100
1010
0100
,
0001
0010
0001
1000
0100
0010
1001
0010
0100
1000
0100
0001
0010
0001
0110
1000
,
0010
0100
0010
1000
0002
0010
1100
1000
0010
0100
0010
0100
2003
0100
0011
0100
,
0010
0100
0010
0001
0010
0100
3101
0010
0001
0100
0011
1000
0100
0010
1100
0010
,
0001
1000
0110
0001
1000
0100
1001
0100
0010
0001
1100
0010
1000
0100
0011
1000
,
0010
0001
0110
0001
0010
0001
1010
0100
0010
0100
1001
0010
0100
1000
0110
0010
,
0001
0100
1010
0001
0200
0001
1010
0010
0001
1000
0011
1000
0001
0010
1001
0010
,
1001
0010
1001
0010
1001
0010
1311
0100
1000
0010
0101
0100
0010
1000
0011
0100
,
0010
0001
1100
1000
0100
0001
0110
1000
0100
1000
0011
0001
0100
1000
1001
0010
,
1000
0001
0110
1000
0001
0010
0101
1000
0001
0010
1001
0100
1000
0010
1100
0010
,
0001
1000
0101
0001
0200
1000
1001
0010
1000
0010
1001
1000
0302
0010
1100
0010
,
0100
1000
1010
0100
0010
0100
1103
0010
0001
1000
0011
0100
0010
0001
1001
0100
,
0010
0001
1010
0100
1000
0010
1100
0001
0010
0001
1100
0010
0100
0001
0110
1000
,
0010
0100
1001
0001
0010
1000
0101
1000
0001
0010
1001
0100
0001
1000
0011
1000
,
0100
0010
0101
0100
2000
0001
0110
0100
0001
0010
0101
0001
0010
0001
0110
0001
,
0110
0001
0110
0001
0110
0001
3121
0000
0100
0000
0102
0000
1000
0000
2130
0000
,
0110
0213
0001
3012
1000
1320
0100
1203
,
1001
1032
0010
1320
0100
2103
0001
0132
,
0110
3210
1000
1023
0001
2301
0001
0132
,
0110
3210
1000
1023
0001
2301
0100
0231
,
0011
3021
1000
1302
0100
2130
0010
0123
,
0101
3201
0001
1032
0010
2310
0100
0123
,
0101
3201
1000
2031
0001
0312
0010
3210
,
1010
2013
0001
0321
0100
3102
1000
2130
,
0110
0213
0001
3012
1000
1320
0100
1203
,
1001
1032
0010
1320
0100
2103
0001
0132
,
0110
3210
1000
1023
0001
2301
0001
0132
,
0110
3210
1000
1023
0001
2301
0100
0231
,
0011
3021
1000
1302
0100
2130
0010
0123
,
0101
3201
0001
1032
0010
0310
0100
1100
,
0110
0000
1100
0000
0010
0000
0103
0010
0001
0000
0012
0100
0010
0100
0010
0100
,
1010
0100
1010
0100
1010
0000
0113
0000
0010
0000
0001
0000
0010
0000
0000
0000
,
1000
1000
0000
0010
0100
1000
0100
0000
,
0001
0001
0000
1001
0100
0010
0100
0000
,
0010
0010
0000
0001
0010
0100
0010
0000
,
0100
0100
0000
0011
0001
0010
0100
0000
,
1000
1000
0000
1000
0100
0010
0100
0000
,
0001
0001
0010
1100
0010
0100
1000
0002
,
0000
0000
0000
0020
0000
0000
0000
0200
,
0000
0000
0000
0333
0000
0000
0000
0000
;

//---------------dance-single - ----------------
#NOTES:
     dance-single:
     :
     Easy:
     1:
     0.000,0.000,0.000,0.000,0.000,0.000,0.000,0.000,0.000,0.000:
0000
0000
0000
0000
;

//---------------dance-single - Copied from----------------
#NOTES:
     dance-single:
     Copied from:
     Medium:
     1:
     0.000,0.000,0.000,0.000,0.000,0.000,0.000,0.000,0.000,0.000:
0000
0000
0000
0000
;
